#TITLE:Exam Cram v2;
#SUBTITLE:;
#ARTIST:Rushjet1;
#TITLETRANSLIT:;
#SUBTITLETRANSLIT:;
#ARTISTTRANSLIT:;
#CREDIT:;
#BANNER:bn.png;
#BACKGROUND:bg.png;
#LYRICSPATH:;
#CDTITLE:cdtitle.png;
#MUSIC:Exam_Cram_v2.mp3;
#OFFSET:-0.480;
#SAMPLESTART:100.000;
#SAMPLELENGTH:12.000;
#SELECTABLE:YES;
#BPMS:0.000=150.500,256.000=150.980;
#STOPS:;
#BGCHANGES:;
// cache tags:
#FIRSTBEAT:0.000;
#LASTBEAT:275.375;
#SONGFILENAME:Songs/nhac/Exam_Cram_v2 (cetaka)/Exam_Cram_v2.sm;
#HASMUSIC:1;
#HASBANNER:1;
#MUSICLENGTH:113.400;
// end cache tags

//---------------dance-single - old chart hehe----------------
#NOTES:
     dance-single:
     old chart hehe:
     Edit:
     15:
     1.000,1.000,1.000,0.009,1.000,1360.000,317.000,1.000,0.000,88.000:
0011
0000
0011
0000
0110
0110
0000
0110
0000
1100
1100
0000
1100
0000
0110
0000
,
0011
0000
0011
0000
0110
0110
0000
0110
0000
1100
1100
0000
1100
0000
0110
0000
,
0101
0000
0101
0000
0110
0110
0000
0110
0000
1010
1010
0000
1010
0000
0110
0000
,
0101
0000
0101
0000
0110
0110
0000
0110
0000
1010
1010
0000
1010
0000
0101
0000
,
0001
0000
0001
0000
0010
0010
0000
0010
0000
0100
0100
0000
0100
0000
0010
0000
,
0001
0000
0001
0000
0010
0010
0000
0010
0000
0100
0100
0000
0100
0000
0010
0000
,
0001
0000
0001
0000
0010
0010
0000
0010
0000
0100
0100
0000
0100
0000
0010
0000
,
0001
0000
0001
0000
0010
0010
0000
0010
0000
0100
0100
0000
0100
0000
0010
0000
,
1001
0000
0001
0000
1010
0010
0000
0010
1000
0100
0100
0000
1100
0000
0010
0000
,
1001
0000
0001
0000
1010
0010
0000
0010
1000
0100
0100
0000
1100
0000
0010
0000
,
1001
0000
0001
0000
1010
0010
0000
0010
1000
0100
0100
0000
1100
0000
0010
0000
,
1001
0000
0001
0000
1010
0010
0000
0010
1000
0100
0100
0000
1100
0000
0010
0000
,
1001
0100
0011
0100
0111
1010
0100
1010
0100
1001
1010
0001
0111
1000
0101
0010
,
1001
0100
0011
0100
0111
1010
0100
1010
0100
1001
1010
0001
0111
1000
0101
0010
,
1001
0100
0011
0100
1011
0101
0010
1001
0100
1001
0101
0010
0111
1000
0101
0010
,
1001
0100
0011
0100
0111
1010
0100
1010
0100
1001
1010
0001
0111
1000
0101
0010
,
1101
0100
1011
0100
1111
1010
0101
1010
0101
1001
1110
0001
1111
1000
0111
0010
,
1101
0100
1011
0100
1111
1010
0101
1010
0101
1001
1110
0001
1111
1000
0111
0010
,
1011
1000
0111
0001
1111
1001
0110
1001
0101
1010
0111
0100
1111
1000
0111
0010
,
1101
0100
1011
0100
1111
1010
0101
1010
0101
1001
1110
0001
1111
1000
0111
0010
,
1101
0100
1011
0100
1111
1010
0101
1010
0101
1001
1110
0001
1111
1000
0111
0010
,
1101
0100
1011
0100
1111
1010
0101
1010
0101
1001
1110
0001
1111
1000
0111
0010
,
1011
1000
0111
1000
1111
1001
0110
1001
0101
1010
0111
0100
1111
1000
0111
0010
,
1101
0100
1011
0100
1111
1010
0101
1010
0101
1001
1110
0001
1111
1000
0111
0010
,
1001
0100
0010
0100
0001
1000
0010
0100
0010
1000
0100
0001
1000
0100
0001
1000
0100
0010
0001
0010
1000
0001
0100
0001
0010
1000
0001
0100
1000
0001
0010
0100
,
0001
0100
0010
1000
0100
0010
1000
0100
0001
0100
0010
0001
0100
1000
0010
0100
1000
0010
0100
1000
0010
0001
1000
0010
0100
0010
1000
0001
0010
1000
0001
0010
,
0100
0010
1000
0100
0001
1000
0100
0001
0010
0001
1000
0010
0100
0001
0010
0001
0100
0010
0100
1000
0010
0001
1000
0010
0100
1000
0010
0001
0100
0010
0001
1000
,
0100
0010
1000
0001
0100
1000
0010
0001
1000
0100
0010
1000
0001
0100
0010
0001
1000
0010
0100
1000
0001
0010
1000
0001
0100
0001
1000
0100
0010
0001
0100
0010
,
0001
1000
0010
0100
0001
1000
0010
0100
0001
1000
0100
0001
1000
0100
0010
1000
0100
0010
0001
0100
1000
0001
0100
0001
0010
1000
0001
0100
1000
0001
0010
0100
,
0001
0100
0010
1000
0001
0010
1000
0100
0001
0100
0010
0001
0100
1000
0010
0001
1000
0010
0100
1000
0010
0001
1000
0010
0100
0010
1000
0001
0100
1000
0001
0010
,
0100
0010
1000
0100
0001
1000
0100
0001
1000
0001
0100
0010
0100
0001
1000
0001
0100
0010
0001
1000
0100
0001
1000
0010
0100
1000
0010
0001
1000
0100
0001
1000
,
0100
0010
1000
0001
0010
1000
0100
0001
1000
0001
0100
1000
0001
0100
0010
0001
1000
0010
0001
1000
0100
0010
1000
0001
0100
0010
1000
0100
0010
0001
0100
1000
,
0011
1000
0011
1000
0111
0110
1000
0110
0001
1100
1100
0010
1101
0010
0101
1000
,
0011
1000
0011
1000
0111
0110
1000
0110
0001
1100
1100
0010
1101
0010
0101
1000
,
0101
0010
0101
1000
0111
0110
1000
0110
0001
1010
1010
0100
1011
0100
0011
1000
,
0101
0010
0101
1000
0111
0110
1000
0110
0001
1010
1010
0100
1011
0100
0011
1000
,
0011
1000
0011
1000
0111
0110
1000
0110
0001
1100
1100
0010
1101
0010
0101
1000
,
0101
0010
0101
1000
0111
0110
1000
0110
0001
1010
1010
0100
1011
0100
0011
1000
,
0101
0010
0101
1000
0111
0110
1000
0110
0001
1010
1010
0100
1011
0100
0011
1000
,
0101
0010
0101
1000
0111
0110
1000
0110
0001
1010
1010
0100
1011
0100
0011
1000
,
0011
0001
0011
0001
1011
1010
0010
1010
0010
0101
0101
0100
1101
0100
0011
0010
,
0101
0001
0011
0001
1011
1010
0010
1010
0010
0101
0101
0100
1101
0100
0011
0010
,
0101
0001
0101
0001
0111
0110
0010
0110
0010
0101
0101
0100
0111
0100
0011
0010
,
0101
0001
0101
0001
0111
0110
0010
0110
0010
0101
0101
0100
0111
0100
0011
0010
,
0011
0001
0011
0001
1011
1010
0010
1010
0010
0101
0101
0100
1101
0100
0011
0010
,
0101
0001
0011
0001
1011
1010
0010
1010
0010
0101
0101
0100
1101
0100
0011
0010
,
0101
0001
0101
0001
0111
0110
0010
0110
0010
0101
0101
0100
0111
0100
0011
0010
,
0101
0001
0101
0001
0111
0110
0010
0110
0010
0101
0101
0100
0111
0100
0011
0010
,
1000
0010
0001
0100
1000
0100
0010
0001
1000
0010
0100
0001
0010
0100
0001
0010
0100
0010
0100
1000
0100
0001
1000
0010
0001
0100
0010
0001
1000
0100
0010
0100
,
1000
0010
0001
0100
1000
0100
0010
0001
1000
0010
0100
0001
0010
0100
0001
0010
0100
0010
0100
1000
0100
0001
1000
0010
0001
0100
0010
0001
1000
0100
0010
0100
,
1000
0001
0100
0010
0100
0001
0010
0001
1000
0100
1000
0010
0001
0100
0010
1000
0001
1000
0010
0100
1000
0010
0001
0010
0100
1000
0001
0100
0010
1000
0100
0001
,
1000
0001
0100
0010
0100
0001
0010
0001
1000
0100
1000
0010
0001
0100
0010
1000
0001
1000
0010
0100
1000
0010
0001
0010
0100
1000
0001
0100
0010
1000
0100
0001
,
1000
0010
0001
0100
1000
0100
0010
0001
1000
0010
0100
0001
0010
0100
0001
0010
0100
0010
0100
1000
0100
0001
1000
0010
0001
0100
0010
0001
1000
0100
0010
0100
,
1000
0010
0001
0100
1000
0100
0010
0001
1000
0010
0100
0001
0010
0100
0001
0010
0100
0010
0100
1000
0100
0001
1000
0010
0001
0100
0010
0001
1000
0100
0010
0100
,
1000
0001
0100
0010
0100
0001
0010
0001
1000
0100
1000
0010
0001
0100
0010
1000
0001
1000
0010
0100
1000
0010
0001
0010
0100
1000
0001
0100
0010
1000
0100
0001
,
1000
0001
0100
0010
0100
0001
0010
0001
1000
0100
1000
0010
0001
0100
0010
1000
0001
1000
0010
0100
1000
0010
0001
0010
0100
1000
0001
0100
0010
1000
0100
0001
,
1000
0010
0001
0100
1000
0100
0010
0001
1000
0001
1000
0001
1000
0001
1000
0001
0100
0001
0100
0001
0100
0001
0100
0001
0010
0100
0010
0001
1000
0100
0010
0100
,
1000
0010
0001
0100
1000
0100
0010
0001
1000
0010
1000
0010
1000
0010
1000
0010
0100
0010
0100
0010
0100
0010
0100
0010
1000
0010
0100
0001
0010
0100
0010
0001
,
1000
0010
0001
0100
1000
0100
0010
0001
1000
0001
1000
0001
1000
0001
1000
0001
0100
0001
0100
0001
0100
0001
0100
0001
0010
0100
0010
0001
1000
0100
0010
0100
,
1000
0010
0001
0100
1000
0100
0010
0001
1000
0001
1000
0001
1000
0001
1000
0001
0100
0001
0100
0001
0100
0001
0100
0001
0010
0100
0010
0001
1000
0100
0010
0100
,
1000
0001
0100
0010
0100
0001
0010
0001
1000
0100
1000
0010
0001
0100
0010
1000
0001
1000
0010
0100
1000
0010
0001
0010
0100
1000
0001
0100
0010
1000
0100
0001
,
1000
0010
0001
0100
1000
0100
0010
0001
1000
0010
0100
0001
0010
0100
0001
0010
0100
0010
0100
1000
0100
0001
1000
0010
0001
0100
0010
0001
1000
0100
0010
0100
,
1000
0010
0001
0100
1000
0100
0010
0001
1000
0010
0100
0001
0010
0100
0001
0010
0100
0010
0100
1000
0100
0001
1000
0010
0001
0100
0010
0001
1000
0100
0010
0100
,
1000
0001
0100
0010
0100
0001
0010
0001
0100
1000
0010
0100
1000
0010
0001
0010
0100
1000
0001
0100
0010
1000
0100
0001
1000
0100
0001
1000
0100
0001
0010
0100
,
1000
0001
0100
0001
0010
0001
0100
0001
,
1000
0001
0100
0001
0010
0001
0100
0001
,
0100
1000
0100
0010
1000
0100
0010
0001
,
0010
0100
1000
0100
1000
0001
0010
0002
,
0000
0000
0000
0003
;

//---------------dance-single - Copied from 300 bpm----------------
#NOTES:
     dance-single:
     Copied from 300 bpm:
     Hard:
     13:
     1.000,1.000,1.000,0.009,1.000,1047.000,333.000,1.000,0.000,55.000:
0011
0000
0011
0000
0110
0110
0000
0110
0000
1100
1100
0000
1100
0000
0110
0000
,
0011
0000
0011
0000
0110
0110
0000
0110
0000
1100
1100
0000
1100
0000
0110
0000
,
0101
0000
0101
0000
0110
0110
0000
0110
0000
1010
1010
0000
1010
0000
0110
0000
,
0101
0000
0101
0000
0110
0110
0000
0110
0000
1010
1010
0000
1010
0000
0101
0000
,
0010
0000
0010
0000
0100
0100
0000
0100
0000
1000
1000
0000
1000
0000
0100
0000
,
0010
0000
0010
0000
0100
0100
0000
0100
0000
1000
1000
0000
1000
0000
0100
0000
,
0001
0000
0001
0000
0010
0010
0000
0010
0000
0100
0100
0000
0100
0000
0010
0000
,
0001
0000
0001
0000
0010
0010
0000
0010
0000
0100
0100
0000
0100
0000
0010
0000
,
0011
0000
0010
0000
0101
0100
0000
0100
0001
1000
1000
0000
1001
0000
0100
0000
,
0011
0000
0010
0000
0101
0100
0000
0100
0001
1000
1000
0000
1001
0000
0100
0000
,
1001
0000
0001
0000
1010
0010
0000
0010
1000
0001
0001
0000
1100
0000
0010
0000
,
1001
0000
0001
0000
1010
0010
0000
0010
1000
0001
0001
0000
1100
0000
0010
0000
,
0110
1000
0110
1000
0111
1001
0010
1100
0001
0110
0011
0100
1011
0100
1001
0100
,
1010
0001
0110
1000
0111
1001
0010
0101
1000
0110
0011
0100
1011
0100
1010
0100
,
0011
0100
1001
0010
1101
0011
0100
1001
0100
1010
0011
1000
0111
1000
0011
0100
,
1001
0010
1001
0100
1011
0110
1000
0011
0100
1001
0011
0100
1011
0100
0011
0100
,
1001
0010
0101
0010
1101
0110
0001
1100
0010
1001
1010
0001
1110
0001
1010
0100
,
1001
0010
0101
0010
1101
1010
0001
1010
0001
0110
0101
1000
0111
1000
0011
0100
,
1001
0010
0101
1000
0111
1010
0001
1010
0001
0110
0101
0010
1101
0010
1100
0010
,
0101
1000
0011
1000
0111
1100
0001
0110
1000
0101
0011
0100
1011
0100
1010
0100
,
1001
0010
0101
0010
1101
0110
0001
1100
0010
1001
1010
0001
1110
0001
1010
0100
,
1001
0010
0101
0010
1101
1010
0001
1010
0001
0110
0101
1000
0111
1000
0011
0100
,
1001
0010
0101
1000
0111
1010
0001
1010
0001
0110
0101
0010
1101
0010
1100
0010
,
0101
1000
0011
1000
0111
1100
0001
0110
1000
0101
0011
0100
1011
0100
1010
0100
,
1001
0100
0010
0100
0010
0001
1100
0010
0100
0001
0010
0100
1000
0001
0100
0010
1000
0100
1010
0001
0100
0010
1000
0100
,
0001
0010
1000
0010
0100
0001
1100
0010
0100
0001
1000
0010
0100
0001
0010
0100
1000
0001
1100
0010
1000
0001
0010
0100
,
1000
0100
0010
0001
0100
0010
1100
0001
0100
0010
1000
0001
0010
0100
0001
1000
0010
0100
0011
1000
0010
0100
0001
0010
,
1000
0100
0010
1000
0100
0001
1100
0010
0001
1000
0010
0100
0001
0010
0100
1000
0010
0100
1010
0001
0010
1000
0100
0010
,
0001
1000
0100
1000
0010
0100
1001
0010
1000
0001
0100
0010
1000
0100
0010
1000
0001
0010
1100
0001
0010
1000
0100
0001
,
0010
0100
1000
0001
0010
0100
1001
0010
0100
0010
0001
1000
0010
0100
1000
0001
0010
0001
1100
0010
0100
1000
0001
0010
,
0001
0100
0010
1000
0100
0010
1100
0001
0010
0100
0001
1000
0010
0001
0100
0010
1000
0010
1001
0100
0001
0010
0100
1000
,
0010
0100
0001
1000
0010
0100
1010
0001
1000
0100
0010
1000
0010
0001
1000
0010
0100
0001
1010
0100
0001
1000
0100
0010
,
0001
0000
0001
0000
1100
0100
0000
0100
0000
1000
1000
0000
1100
0000
0010
0000
,
0001
0000
0001
0000
0110
0010
0000
0010
0000
0100
0100
0000
1100
0000
0100
0000
,
0001
0000
0001
0000
1010
0010
0000
0010
0000
1000
1000
0000
1100
0000
0010
0000
,
0001
0000
0001
0000
0110
0010
0000
0010
0000
1000
1000
0000
1010
0000
0001
0000
,
0010
0000
0010
0000
1100
0100
0000
0100
0000
1000
1000
0000
0101
0000
0010
0000
,
0001
0000
0001
0000
1100
0100
0000
0100
0000
1000
1000
0000
1010
0000
0100
0000
,
0001
0000
0001
0000
0110
0010
0000
0010
0000
1000
1000
0000
1001
0000
0100
0000
,
0001
0000
0001
0000
0011
0010
0000
0010
0000
1000
1000
0000
1100
0000
0010
0000
,
1100
0001
0010
0100
1011
0100
0001
0100
1001
0010
1000
0110
1101
0010
0100
0010
,
1001
0010
1000
0100
1011
0100
0001
1000
0110
0001
1000
0101
1011
0100
0001
0100
,
1010
0100
0010
0100
1011
0100
0010
1000
0011
1000
0010
1100
1011
0100
0001
0100
,
1010
0100
1000
0010
1101
0010
1000
0010
0101
1000
0010
1100
1011
0100
0010
0001
,
1100
0001
1000
0001
1110
0001
0100
0010
1001
0010
0001
1010
0111
1000
0010
0100
,
1001
0100
1000
0100
1011
0100
0001
0010
1100
0010
1000
0110
1011
0100
0001
0100
,
1001
0010
0001
0100
1011
0100
0001
0100
1010
0001
1000
0110
1101
0010
1000
0001
,
0110
1000
0100
0010
1101
0010
0001
1000
0011
0100
1000
0011
1101
0010
1000
0001
,
0100
0000
1000
0100
0010
0001
1000
0100
0010
0001
1000
0100
0010
0001
1000
0100
0010
0001
0010
0100
1000
0001
0010
0100
1000
0001
0010
0100
1000
0001
0010
0100
,
1000
0001
1000
0100
0010
0001
1000
0100
0010
0001
1000
0100
0010
0001
1000
0100
0010
1000
0001
0010
0100
1000
0001
0010
0100
1000
0001
0010
0100
1000
0001
0010
,
0100
1000
0001
0100
0010
0001
1000
0100
0010
0001
1000
0100
0010
0001
1000
0010
0001
0100
0010
1000
0001
0100
0010
1000
0001
0010
0100
1000
0001
0010
0100
1000
,
0001
0010
1000
0100
0010
0001
1000
0100
0010
0001
1000
0100
0010
0001
1000
0010
0100
0001
1000
0010
0100
0001
0010
0100
1000
0001
0010
0100
1000
0001
0010
0100
,
1001
0100
1010
0001
1100
0010
1000
0101
0010
1100
0001
1010
0101
0010
1100
0001
,
0110
1000
0011
0100
1001
0010
1000
0101
0010
1001
0100
1010
0101
1000
0011
0100
,
1010
0001
0110
1000
0101
0010
1000
0101
0010
1001
0100
0011
1100
0010
0101
0010
,
1001
0100
1010
0001
0110
1000
0001
0110
1000
0011
0100
1001
0110
1000
0011
0100
,
0011
0100
1001
0010
1101
0010
1000
0101
1010
0101
0010
1100
1011
0100
0011
0100
,
1001
0100
1010
0001
1010
0100
0001
0110
1001
0110
0001
1010
0111
1000
0101
0010
,
1001
0100
0011
0100
1011
0100
0010
0101
1010
0101
0010
1001
1110
0001
1100
0010
,
1001
0100
0011
1000
0111
1000
0001
0110
1001
0110
1000
0011
1101
0010
0101
0010
,
1001
0100
1010
0001
1110
0001
1000
0110
1001
0110
1000
0101
1011
0100
0011
0100
,
1001
0010
1100
0001
1110
0001
1000
0101
1010
0101
0010
1100
1011
0100
0011
0100
,
1001
0010
1100
0010
1101
0010
1000
0101
1010
0101
0010
1100
1011
0100
0011
0100
,
1001
0100
0011
0100
1011
0100
1000
0011
1100
0011
0100
1001
1110
0001
1010
0100
,
1000
0001
0100
0001
0010
0001
0100
0010
,
1000
0001
0100
0001
0010
0001
0100
0010
,
0100
1000
0100
0010
0100
1000
0010
0001
,
0010
0100
1000
0010
0100
0001
0010
0002
,
0000
0000
0000
0000
0000
0000
0000
0000
0000
0000
0000
0000
0000
0000
0000
0000
0000
0000
0000
0000
0000
0000
0000
0000
0000
0000
0000
0003
0000
0000
0000
0000
;
